• Các thành viên chú ý, NHT trở lại vẫn giữ những thông tin cũ, bao gồm username và mật khẩu. Vì vậy mong mọi người sử dụng nick name(hoặc email) và mật khẩu cũ để đăng nhập nhé. Nếu quên mật khẩu hãy vào đây Hướng dẫn lấy lại mật khẩu. Nếu cần yêu cầu trợ giúp, xin liên hệ qua facebook: Le Tuan, Trân trọng!

Hồn Kiếm (2007) 15/40 - FFVN lồng tiếng

#1
HỒN KIẾM (2007)







Code:
E:\HONKIEM_7.KEN@IMAX.VN.avi
General
Complete name : E:\HONKIEM_7.KEN@IMAX.VN.avi
Format : AVI
Format/Info : Audio Video Interleave
File size : 445 MiB
Duration : 42mn 26s
Overall bit rate : 1 465 Kbps
Writing application : VirtualDubMod 1.5.10.1 (build 2366/release)
Writing library : VirtualDubMod build 2366/release
Video #0
ID : 0
Format : MPEG-4 Visual
Format profile : AdvancedSimple@L5
Format settings, BVOP : Yes
Format settings, QPel : No
Format settings, GMC : No warppoints
Format settings, Matrix : Default (H.263)
Muxing mode : Packed bitstream
Codec ID : DX50
Codec ID/Hint : DivX 5
Duration : 42mn 26s
Bit rate : 1 325 Kbps
Width : 720 pixels
Height : 400 pixels
Display aspect ratio : 16:9
Frame rate : 29.970 fps
Resolution : 24 bits
Colorimetry : 4:2:0
Scan type : Progressive
Bits/(Pixel*Frame) : 0.154
Stream size : 402 MiB (90%)
Writing library : XviD 1.1.2 (UTC 2006-11-01)
Audio #1
ID : 1
Format : MPEG Audio
Format version : Version 1
Format profile : Layer 3
Codec ID : 55
Codec ID/Hint : MP3
Duration : 42mn 26s
Bit rate mode : Constant
Bit rate : 128 Kbps
Channel(s) : 2 channels
Sampling rate : 44.1 KHz
Resolution : 16 bits
Stream size : 38.9 MiB (9%)
Alignment : Split accross interleaves
Interleave, duration : 33 ms (1.00 video frame)
Interleave, preload duration : 500 ms
Trích:

Diễn viên:
Tạ Đình Phong: Hồ Diên Đại Tạng
Chung Hân Đồng: Châu Nhi
Kiều Chấn Vũ: Phương Bảo Ngọc
Y Năng Tịnh: Thoát Trần Quận Chúa
Đàm Diệu Văn: Tử Y Hầu
Dương Nhị: Bôn Nguyệt
Triệu Hồng Phi: Mộc Lang Thần Quân
Châu Lợi: Bạch Diễm Chúc (Bạch Thủy Thánh Mẫu)

Nội dung:Một chàng võ sĩ Nhật Bản mình mặc áo trắng, tay cầm bảo kiếm “Trường Quang”, đơn độc đến trung nguyên chỉ với một mục đích: tìm cho ra bảy thanh kiếm vang danh khắp võ lâm Trung Nguyên, hoàn thành di nguyện của sư phụ.Hồ Diên Đại Tạng chính là chàng! Ở vùng đất xa lạ nhưng có phần lưu luyến này,chàng phải giao đấu với hàng loạt cao thủ võ lâm, thậm chí còn phải giao đấu sinh tử với Phương Bảo Ngọc, người em cùng mẹ khác cha với chàng. Tuy nhiên tất cả mọi chuyện đều là âm mưu quỷ kế của ngụy quân tử Vương Điên và Mộc Lang Thần Quân. Trong giờ phút liên quan tới tính mạng, chàng đã quen và nảy sinh tình cảm với Châu Nhi, con gái của Vương Điên… Bạch Diễm Chúc, mẹ ruột của Đại Tạng và Bảo Ngọc, nhìn thấy hai con trở thành thù địch mà lòng đau như cắt.Tử Y Hầu, đệ nhất cao thủ võ lâm, si mê cuồng dại Bạch Diễm Chúc, ôm nỗi ăn năn vì năm xưa đã lỡ tay giết anh ruột (cha của Bảo Ngọc), bao năm nay không ngừng đi tìm tung tích Bạch Diễm Chúc. Ông đã truyền dạy võ công cho Bảo Ngọc và chờ ngày chàng trai này biết được sự thật, trả mối thù giết cha, để lòng ông được thanh thản! Các cuộc tranh chấp của võ lâm tập trung tại cổ thành La Á nơi cất giữ kho báu và bảo kiếm theo truyền thuyết. Chính ngay lúc ngàn cân treo sợi tóc này, Mộc Lang Thần Quân đã chết dưới kiếm của người con gái mình yêu thương,mọi tranh giành cũng kết thúc… Phim được chuyển thể từ tác phẩm “Hoán hoa tẩy kiếm lục” (tức “Ân thù kiếm lục”) của tác giả Cổ Long.














-------------------------------
[ B e l o w - L i n k s - A r e - I n t e r c h a n g a b l e ]



*** hidden content ***


*** hidden content ***


*** hidden content ***



 

Đoàn Nguyễn

Em là Đoàn Nguyễn
#4
HỒN KIẾM (2007)







Code:
E:\HONKIEM_7.KEN@IMAX.VN.avi
General
Complete name : E:\HONKIEM_7.KEN@IMAX.VN.avi
Format : AVI
Format/Info : Audio Video Interleave
File size : 445 MiB
Duration : 42mn 26s
Overall bit rate : 1 465 Kbps
Writing application : VirtualDubMod 1.5.10.1 (build 2366/release)
Writing library : VirtualDubMod build 2366/release
Video #0
ID : 0
Format : MPEG-4 Visual
Format profile : AdvancedSimple@L5
Format settings, BVOP : Yes
Format settings, QPel : No
Format settings, GMC : No warppoints
Format settings, Matrix : Default (H.263)
Muxing mode : Packed bitstream
Codec ID : DX50
Codec ID/Hint : DivX 5
Duration : 42mn 26s
Bit rate : 1 325 Kbps
Width : 720 pixels
Height : 400 pixels
Display aspect ratio : 16:9
Frame rate : 29.970 fps
Resolution : 24 bits
Colorimetry : 4:2:0
Scan type : Progressive
Bits/(Pixel*Frame) : 0.154
Stream size : 402 MiB (90%)
Writing library : XviD 1.1.2 (UTC 2006-11-01)
Audio #1
ID : 1
Format : MPEG Audio
Format version : Version 1
Format profile : Layer 3
Codec ID : 55
Codec ID/Hint : MP3
Duration : 42mn 26s
Bit rate mode : Constant
Bit rate : 128 Kbps
Channel(s) : 2 channels
Sampling rate : 44.1 KHz
Resolution : 16 bits
Stream size : 38.9 MiB (9%)
Alignment : Split accross interleaves
Interleave, duration : 33 ms (1.00 video frame)
Interleave, preload duration : 500 ms
Trích:

Diễn viên:
Tạ Đình Phong: Hồ Diên Đại Tạng
Chung Hân Đồng: Châu Nhi
Kiều Chấn Vũ: Phương Bảo Ngọc
Y Năng Tịnh: Thoát Trần Quận Chúa
Đàm Diệu Văn: Tử Y Hầu
Dương Nhị: Bôn Nguyệt
Triệu Hồng Phi: Mộc Lang Thần Quân
Châu Lợi: Bạch Diễm Chúc (Bạch Thủy Thánh Mẫu)

Nội dung:Một chàng võ sĩ Nhật Bản mình mặc áo trắng, tay cầm bảo kiếm “Trường Quang”, đơn độc đến trung nguyên chỉ với một mục đích: tìm cho ra bảy thanh kiếm vang danh khắp võ lâm Trung Nguyên, hoàn thành di nguyện của sư phụ.Hồ Diên Đại Tạng chính là chàng! Ở vùng đất xa lạ nhưng có phần lưu luyến này,chàng phải giao đấu với hàng loạt cao thủ võ lâm, thậm chí còn phải giao đấu sinh tử với Phương Bảo Ngọc, người em cùng mẹ khác cha với chàng. Tuy nhiên tất cả mọi chuyện đều là âm mưu quỷ kế của ngụy quân tử Vương Điên và Mộc Lang Thần Quân. Trong giờ phút liên quan tới tính mạng, chàng đã quen và nảy sinh tình cảm với Châu Nhi, con gái của Vương Điên… Bạch Diễm Chúc, mẹ ruột của Đại Tạng và Bảo Ngọc, nhìn thấy hai con trở thành thù địch mà lòng đau như cắt.Tử Y Hầu, đệ nhất cao thủ võ lâm, si mê cuồng dại Bạch Diễm Chúc, ôm nỗi ăn năn vì năm xưa đã lỡ tay giết anh ruột (cha của Bảo Ngọc), bao năm nay không ngừng đi tìm tung tích Bạch Diễm Chúc. Ông đã truyền dạy võ công cho Bảo Ngọc và chờ ngày chàng trai này biết được sự thật, trả mối thù giết cha, để lòng ông được thanh thản! Các cuộc tranh chấp của võ lâm tập trung tại cổ thành La Á nơi cất giữ kho báu và bảo kiếm theo truyền thuyết. Chính ngay lúc ngàn cân treo sợi tóc này, Mộc Lang Thần Quân đã chết dưới kiếm của người con gái mình yêu thương,mọi tranh giành cũng kết thúc… Phim được chuyển thể từ tác phẩm “Hoán hoa tẩy kiếm lục” (tức “Ân thù kiếm lục”) của tác giả Cổ Long.














-------------------------------
[ B e l o w - L i n k s - A r e - I n t e r c h a n g a b l e ]



[HIDE]http://www.mediafire.com/?nwcwb3yux9ibw [/HIDE]


[HIDE]
Tập 1:
http://www.megaupload.com/?d=72VDDN59
http://www.megaupload.com/?d=T5PREJ80
http://www.megaupload.com/?d=IKTSS2FN

Tập 2:
http://www.megaupload.com/?d=4I70Z819
http://www.megaupload.com/?d=JPDHCC1I
http://www.megaupload.com/?d=LRB8ASAZ

Tập 3:
http://www.megaupload.com/?d=1TXLRIFT
http://www.megaupload.com/?d=O40XQI5I
http://www.megaupload.com/?d=BVW9PXVY

Tập 4:
http://www.megaupload.com/?d=PH811GDC
http://www.megaupload.com/?d=F3UNHXQA
http://www.megaupload.com/?d=1IJHLCGF

Tập 5:
http://www.megaupload.com/?d=I41R582B
http://www.megaupload.com/?d=8C662F1T
http://www.megaupload.com/?d=IF2H2T7M

Tập 6:
http://www.megaupload.com/?d=XOMGVVK6
http://www.megaupload.com/?d=V48S6R8Q
http://www.megaupload.com/?d=YCQVO23K

Tập 7:
http://www.megaupload.com/?d=90S2L72K
http://www.megaupload.com/?d=Q3D4G3H6
http://www.megaupload.com/?d=F87SNJ5V

Tập 8
http://www.megaupload.com/?d=96G2XHQO
http://www.megaupload.com/?d=EHIJMUMR
http://www.megaupload.com/?d=UR705CGO

Tập 9:
http://www.megaupload.com/?d=2SYRSCV7
http://www.megaupload.com/?d=3EAP3YBG
http://www.megaupload.com/?d=S9TAZVA0

Tập 10:
http://www.megaupload.com/?d=T104V5QQ
http://www.megaupload.com/?d=WTZNJ1A3
http://www.megaupload.com/?d=MSZWLF3Q

Tập 11:
http://www.megaupload.com/?d=42N9HOJ9
http://www.megaupload.com/?d=ZZ3ECH8W
http://www.megaupload.com/?d=9ZURTRPC

Tập 12:
http://www.megaupload.com/?d=74YNFF60
http://www.megaupload.com/?d=O3HTFDT6
http://www.megaupload.com/?d=SDOLS02M

Tập 13:
http://www.megaupload.com/?d=HW3VPC4I
http://www.megaupload.com/?d=TFR1L0R5
http://www.megaupload.com/?d=FKMSVG27

Tập 14:
http://www.megaupload.com/?d=GC34JB25
http://www.megaupload.com/?d=QYTIP23V
http://www.megaupload.com/?d=TLOR99TX

Tập 15:
http://www.megaupload.com/?d=FP5C0323
http://www.megaupload.com/?d=C7VA0A5G
http://www.megaupload.com/?d=L2STUIOQ [/HIDE]


[HIDE]
http://www.fileserve.com/file/QaJDUJu
http://www.fileserve.com/file/kUyaUUK
http://www.fileserve.com/file/p3NwsFb
http://www.fileserve.com/file/VTKbU9T
http://www.fileserve.com/file/kJWx4da
http://www.fileserve.com/file/RtqrNQN
http://www.fileserve.com/file/TRFhHzv
http://www.fileserve.com/file/hVqzwUW
http://www.fileserve.com/file/KA2Ynf5
http://www.fileserve.com/file/RKQm2HQ
http://www.fileserve.com/file/HkKc3YJ
http://www.fileserve.com/file/KXZKBju
http://www.fileserve.com/file/UhypJKW
http://www.fileserve.com/file/VgmcJzG
http://www.fileserve.com/file/xFYmTVG
http://www.fileserve.com/file/EaTu7tv
http://www.fileserve.com/file/AxHmqdF
http://www.fileserve.com/file/mXrtrAH
http://www.fileserve.com/file/W3GH6ZC
http://www.fileserve.com/file/SqQKCm4
http://www.fileserve.com/file/3nZsP9V
http://www.fileserve.com/file/AukzYpt
http://www.fileserve.com/file/dEawP3d
http://www.fileserve.com/file/2vxZYDa
http://www.fileserve.com/file/KRurFTt
http://www.fileserve.com/file/kyxCxZY
http://www.fileserve.com/file/gusSpS5
http://www.fileserve.com/file/jpA6uSk
http://www.fileserve.com/file/tfnXeet
http://www.fileserve.com/file/xya5TH8
http://www.fileserve.com/file/h2nc2T4
http://www.fileserve.com/file/bTKVYZD
http://www.fileserve.com/file/AZgWyww
http://www.fileserve.com/file/Nj7wfVk
http://www.fileserve.com/file/cXzJwze
http://www.fileserve.com/file/FDe6C27
http://www.fileserve.com/file/QEtrCGm
http://www.fileserve.com/file/KgJdVya
http://www.fileserve.com/file/Nfg5Cpj
http://www.fileserve.com/file/wSDFEAK
http://www.fileserve.com/file/W9rrwpa
http://www.fileserve.com/file/HP25P2x
http://www.fileserve.com/file/vHjyPtP
http://www.fileserve.com/file/MYcenxA
http://www.fileserve.com/file/hpVMFrv [/HIDE]