• Các thành viên chú ý, NHT trở lại vẫn giữ những thông tin cũ, bao gồm username và mật khẩu. Vì vậy mong mọi người sử dụng nick name(hoặc email) và mật khẩu cũ để đăng nhập nhé. Nếu quên mật khẩu hãy vào đây Hướng dẫn lấy lại mật khẩu. Nếu cần yêu cầu trợ giúp, xin liên hệ qua facebook: Le Tuan, Trân trọng!

[MF] Immortals (2011) - Những kẻ bất tử DVDRip Mediafire Free Download Links [1.31G]

kutekute90

Đang ở trên non
#1


Siêu phẩm Những kẻ bất tử sẽ công chiếu vào cuối năm 2011 vừa tung ra trailer mới nhất với những cảnh quay ấn tượng.


Một số hình ảnh giới thiệu trên poster phim Immortals (2011) - Những kẻ bất tử
Bộ phim kể về cuộc chiến huyền thoại của các vị thần thời Hy Lạp cổ đại. Nhân vật chính là chàng dũng sĩ trẻ tuổi Theseus (do nam diễn viên Henry Cavill thủ vai). Nam diễn viên chính Cavill được biết đến nhiều nhất qua vai diễn em rể của Vua Henry VIII trong loạt phim truyền hình The Tudors nổi tiếng.

Trong phim Immortals (2011) - Những kẻ bất tử, Theseus sẽ lãnh đạo một nhóm các chiến binh chống lại những người Titan khổng lồ và những vị thần hùng mạnh nhằm giải thoát cho loài người.

Bộ phim ban đầu mang tựa đề War of Gods (Cuộc chiến giữa các vị thần), sau đó được đổi thành Immortals (Những kẻ bất tử) nhằm tạo thêm sự bí ẩn và phù hợp hơn với nội dung phim.

Bên cạnh nam diễn viên nổi tiếng Henry Cavill, trong phim còn có sự tham gia của dàn sao nổi tiếng không kém như Mickey Rourke trong vai vua Hyperion, Kellan Lutz của Twilight Saga trong vai thần biển Poseidon, nữ diễn viên mới nổi Isabel Lucas đóng vai nữ thần Athena.

Phim do Tarsem Singh làm đạo diễn và được sản xuất bởi Mark Canton – đồng sản xuất "bom tấn" 300, Ryan Kavanaugh – Zombieland.

Phim cũng được công chiếu vào một ngày khá đặc biệt 11/11/11.





http://www.imdb.com/title/tt1253864/
Format : AVI
Format/Info : Audio Video Interleave
Format profile : OpenDML
File size : 1.31 GiB
Duration : 1h 50mn
Overall bit rate : 1 698 Kbps
Writing application : VirtualDubMod 1.5.10.2 (build 2542/release)
Writing library : VirtualDubMod build 2542/release
Original source form : MAX TORRENTZ
Copyright : SIGISMUNT

Video
ID : 0
Format : MPEG-4 Visual
Format profile : AdvancedSimple@L5
Format settings, BVOP : Yes
Format settings, QPel : No
Format settings, GMC : No warppoints
Format settings, Matrix : Default (H.263)
Codec ID : XVID
Codec ID/Hint : XviD
Duration : 1h 50mn
Bit rate : 1 245 Kbps
Width : 720 pixels
Height : 384 pixels
Display aspect ratio : 1.875
Frame rate : 23.976 fps
Resolution : 24 bits
Colorimetry : 4:2:0
Scan type : Progressive
Bits/(Pixel*Frame) : 0.188
Stream size : 983 MiB (73%)
Writing library : XviD 1.2.1 (UTC 2008-12-04)

Audio
ID : 1
Format : AC-3
Format/Info : Audio Coding 3
Codec ID : 2000
Duration : 1h 50mn
Bit rate mode : Constant
Bit rate : 448 Kbps
Channel(s) : 6 channels
Channel positions : Front: L C R, Surround: L R, LFE
Sampling rate : 48.0 KHz
Stream size : 354 MiB (26%)
Alignment : Aligned on interleaves
Interleave, duration : 64 ms (1.53 video frames)
Interleave, preload duration : 192 ms

Trailer:








Phụ đề Việt: http://subscene.com/vietnamese/Immortals-2011/subtitle-540132.aspx
 

N.H.T

Riêng một góc trời ...
#2
Đang xem bộ này hay phết, kéo torrent mất nửa ngày :-s

Phim HD 1080 nét đừng hỏi, cơ mà nặng (11,7Gb) :-s